返回列表 发新帖

[喜剧片] 花甲大人转男孩 [普通话/繁简] B.T.T.G.T.2018.CHINESE.1080p.BluRay.x264.DTS-WiKi

[复制链接]

5万

主题

5万

帖子

18万

积分

实习版主

Rank: 7Rank: 7Rank: 7

积分
188834

论坛元老

发表于 6 天前 | 显示全部楼层 | 阅读模式




◎译  名 花甲大人转男孩/花甲男孩转大人电影版
◎片  名 Back to the Good Times
◎年  代 2018   
◎国  家 中国台湾
◎类  别 剧情/喜剧
◎语  言 普通话
◎IMDB评分 5.5/10 from 46 users
◎IMDb链接 http://imdb.com/title/tt7827658/
◎片  长 1 h 58 min
◎导  演 瞿友宁 Arthur Chu Yu-Ning
◎主  演 卢广仲 Crowd Lu
       蔡振南 Chen-Nan Tsai
       柯叔元 Alex Shu-Yuan Ko
       康晋荣 Chin-Jung Kang
       龙劭华 Siu Wa Lung
       严正岚 Vera Yen
       刘冠廷 Kuan-ting Liu
       江宜蓉 Yi-Jung Chiang 

◎简  介  

  阿嬷准备要做对年了,花甲也在这时候退伍,和情人阿玮开心重逢之际,却遇上青梅竹马的雅婷来求救,希望他帮忙解决前男友来找麻烦,花甲智退来敌,大家狂欢之际,隔天早晨,花甲却发现自己和阿玮裸体躺在床上!!!

  阿玮古板的父母生气到访祖厝讨论花甲该如何负责?却发生一连串巧合和误会,让双方家庭的初次见面成了暴走且荒唐的闹剧,大打出手,阿玮更气花甲的无能表现,失望离开。

  花甲借口尿遁躲了起来,衰到居然自己还放了个屁臭死自己,不得已还是得出来面对难关之时,却发现家人都不见,而人生即将面对空前的危机,他必须该如何才能像超人一样拯救自己与自己的家族呢?

  1. Video[/size]
  2. [size=14px]ID : 1[/size]
  3. [size=14px]Format : AVC[/size]
  4. [size=14px]Format/Info : Advanced Video Codec[/size]
  5. [size=14px]Format profile : [email]High@L4.1[/email][/size]
  6. [size=14px]Format settings : CABAC / 5 Ref Frames[/size]
  7. [size=14px]Format settings, CABAC : Yes[/size]
  8. [size=14px]Format settings, Reference frames : 5 frames[/size]
  9. [size=14px]Codec ID : V_MPEG4/ISO/AVC[/size]
  10. [size=14px]Duration : 1 h 58 min[/size]
  11. [size=14px]Bit rate : 11.8 Mb/s[/size]
  12. [size=14px]Width : 1 920 pixels[/size]
  13. [size=14px]Height : 802 pixels[/size]
  14. [size=14px]Display aspect ratio : 2.40:1[/size]
  15. [size=14px]Frame rate mode : Constant[/size]
  16. [size=14px]Frame rate : 24.000 FPS[/size]
  17. [size=14px]Color space : YUV[/size]
  18. [size=14px]Chroma subsampling : 4:2:0[/size]
  19. [size=14px]Bit depth : 8 bits[/size]
  20. [size=14px]Scan type : Progressive[/size]
  21. [size=14px]Bits/(Pixel*Frame) : 0.320[/size]
  22. [size=14px]Stream size : 9.75 GiB (89%)[/size]
  23. [size=14px]Writing library : x264 core 129 r2245 bc13772[/size]
  24. [size=14px]Encoding settings : cabac=1 / ref=5 / deblock=1:-3:-3 / analyse=0x3:0x133 / me=umh / subme=11 / psy=1 / psy_rd=1.05:0.05 / mixed_ref=1 / me_range=64 / chroma_me=1 / trellis=2 / 8x8dct=1 / cqm=0 / deadzone=21,11 / fast_pskip=0 / chroma_qp_offset=-3 / threads=6 / lookahead_threads=1 / sliced_threads=0 / nr=0 / decimate=1 / interlaced=0 / bluray_compat=0 / constrained_intra=0 / bframes=8 / b_pyramid=2 / b_adapt=2 / b_bias=0 / direct=3 / weightb=1 / open_gop=0 / weightp=2 / keyint=250 / keyint_min=24 / scenecut=40 / intra_refresh=0 / rc_lookahead=60 / rc=2pass / mbtree=1 / bitrate=11809 / ratetol=1.0 / qcomp=0.60 / qpmin=0 / qpmax=69 / qpstep=4 / cplxblur=20.0 / qblur=0.5 / vbv_maxrate=40000 / vbv_bufsize=30000 / nal_hrd=none / ip_ratio=1.40 / aq=1:0.80[/size]
  25. [size=14px]Language : English[/size]
  26. [size=14px]Default : Yes[/size]
  27. [size=14px]Forced : No[/size]

  28. [size=14px]Audio[/size]
  29. [size=14px]ID : 2[/size]
  30. [size=14px]Format : DTS[/size]
  31. [size=14px]Format/Info : Digital Theater Systems[/size]
  32. [size=14px]Codec ID : A_DTS[/size]
  33. [size=14px]Duration : 1 h 58 min[/size]
  34. [size=14px]Bit rate mode : Constant[/size]
  35. [size=14px]Bit rate : 1 509 kb/s[/size]
  36. [size=14px]Channel(s) : 6 channels[/size]
  37. [size=14px]Channel layout : C L R Ls Rs LFE[/size]
  38. [size=14px]Sampling rate : 48.0 kHz[/size]
  39. [size=14px]Frame rate : 93.750 FPS (512 SPF)[/size]
  40. [size=14px]Bit depth : 16 bits[/size]
  41. [size=14px]Compression mode : Lossy[/size]
  42. [size=14px]Stream size : 1.25 GiB (11%)[/size]
  43. [size=14px]Language : Chinese[/size]
  44. [size=14px]Default : Yes[/size]
  45. [size=14px]Forced : No[/size]

  46. [size=14px]Text #1[/size]
  47. [size=14px]ID : 3[/size]
  48. [size=14px]Format : UTF-8[/size]
  49. [size=14px]Codec ID : S_TEXT/UTF8[/size]
  50. [size=14px]Codec ID/Info : UTF-8 Plain Text[/size]
  51. [size=14px]Duration : 1 h 54 min[/size]
  52. [size=14px]Bit rate : 66 b/s[/size]
  53. [size=14px]Count of elements : 2823[/size]
  54. [size=14px]Stream size : 55.8 KiB (0%)[/size]
  55. [size=14px]Language : English[/size]
  56. [size=14px]Default : No[/size]
  57. [size=14px]Forced : No[/size]

  58. [size=14px]Text #2[/size]
  59. [size=14px]ID : 4[/size]
  60. [size=14px]Format : UTF-8[/size]
  61. [size=14px]Codec ID : S_TEXT/UTF8[/size]
  62. [size=14px]Codec ID/Info : UTF-8 Plain Text[/size]
  63. [size=14px]Duration : 1 h 54 min[/size]
  64. [size=14px]Bit rate : 67 b/s[/size]
  65. [size=14px]Count of elements : 2829[/size]
  66. [size=14px]Stream size : 56.8 KiB (0%)[/size]
  67. [size=14px]Title : 简体[/size]
  68. [size=14px]Language : Chinese[/size]
  69. [size=14px]Default : Yes[/size]
  70. [size=14px]Forced : No[/size]

  71. [size=14px]Text #3[/size]
  72. [size=14px]ID : 5[/size]
  73. [size=14px]Format : UTF-8[/size]
  74. [size=14px]Codec ID : S_TEXT/UTF8[/size]
  75. [size=14px]Codec ID/Info : UTF-8 Plain Text[/size]
  76. [size=14px]Duration : 1 h 54 min[/size]
  77. [size=14px]Bit rate : 67 b/s[/size]
  78. [size=14px]Count of elements : 2829[/size]
  79. [size=14px]Stream size : 56.8 KiB (0%)[/size]
  80. [size=14px]Title : 繁体[/size]
  81. [size=14px]Language : Chinese[/size]
  82. [size=14px]Default : No[/size]
  83. [size=14px]Forced : No
复制代码






點擊進入下載

回复

使用道具 举报

发表回复

您需要登录后才可以回帖 登录 | 立即注册

本版积分规则

快速回复 返回顶部 返回列表