返回列表 发新帖

[剧情片] 诺查丹玛斯2012.Nostradamus.2012.2009.1080p.BluRay.x264-7o9x

[复制链接]

6万

主题

6万

帖子

23万

积分

实习版主

Rank: 7Rank: 7Rank: 7

积分
231360

论坛元老

发表于 2019-8-14 09:38:55 | 显示全部楼层 | 阅读模式


◎译  名 诺查丹玛斯2012
◎片  名 Nostradamus:2012
◎年  代 2009
◎产  地 美国
◎类  别 纪录片 / 历史
◎语  言 英语
◎上映日期 2009-01-04
◎IMDb评分 4.8/10 from 1080 users
◎IMDb链接 http://www.imdb.com/title/tt1358232
◎豆瓣评分 6.6/10 from 163 users
◎豆瓣链接 https://movie.douban.com/subject/3842246/
◎片  长 120分钟
◎导  演 Andy Pickard
◎编  剧 Sarah Hollister / Larry Weitzman
◎主  演 Vincent Bridges
      James Lurie
      Gregg Braden


◎标  签 纪录片 | 2012 | 预言 | 美国 | 玛雅 | 灾难 | 新时代 | 历史频道

◎简  介

  预言家们眼里的2012年和我们噩梦里的场景有什么相似之处吗?
  从危地马拉丛林里的神秘巫师到霍皮人长老,从玛雅萨满巫师到现代社会的预言家,他们对于世界末日的警告在一些令人震惊的现代背景下展开。
  引用
  诺查丹马斯(拉丁文名字:Nostradamus),亦翻译为诺斯特拉达姆士。原名米歇尔·德·诺斯特罗达姆(法语原名:Michel de Nostredame),原姓吉素力(Gassonet),生于1503年12月14的法国,死于1566年7月2日。法国籍犹太裔预言家,精通希伯来文和希腊文,留下以四行体诗写成的预言集《百诗集》(Les Propheties,1555年初版,《诸世纪》一译名为误译)一部。他影响深远,连法王亨利二世都召请入宫,请他为国家预言吉凶祸福。五年之后,离开宫廷,来到了沙隆,花了四年的时间完成一本奇书,就是《百诗集》。有研究者从这些短诗中「看到」对不少历史事件(如法国大革命、希特勒之崛起)及重要发明(如飞机、原子弹)的预言。因诺斯特拉达姆士的预言,无论他生前死后,仍吸引了世界各地崇拜者。《百诗篇》出版后,直到现在依然非常畅销。许多热心者,将他的预言与世界主要事件分折,并找到应验的地方。相比之下,大多学者认为诺斯特拉达姆士四行诗体预言模煳不清,预言的「应验」是它的描写太广泛,没有证据证明预言诗的真确性,也没有证据证明预言诗确实描述某一件事上。然而,诺斯特拉达姆在法国文艺复兴时期被受重视,而现今特别是在媒介和普遍的文化,并且和同等出名的预言圣经密码预言相比较。
Video
ID : 1
Format : AVC
Format/Info : Advanced Video Codec
Format profile : High@L4.1
Format settings, CABAC : Yes
Format settings, ReFrames : 4 frames
Codec ID : V_MPEG4/ISO/AVC
Duration : 1h 30mn
Bit rate : 8 844 Kbps
Width : 1 920 pixels
Height : 1 080 pixels
Display aspect ratio : 16:9
Frame rate mode : Constant
Frame rate : 23.976 (24000/1001) fps
Original frame rate : 23.976 (23976/1000) fps
Color space : YUV
Chroma subsampling : 4:2:0
Bit depth : 8 bits
Scan type : Progressive
Bits/(Pixel*Frame) : 0.178
Stream size : 5.47 GiB (83%)
Writing library : x264 core 114 r1924 08d04a4
Encoding settings : cabac=1 / ref=4 / deblock=1:0:0 / analyse=0x3:0x133 / me=umh / subme=7 / psy=1 / psy_rd=1.00:0.00 / mixed_ref=1 / me_range=16 / chroma_me=1 / trellis=1 / 8x8dct=1 / cqm=0 / deadzone=21,11 / fast_pskip=0 / chroma_qp_offset=-2 / threads=12 / sliced_threads=0 / nr=0 / decimate=1 / interlaced=0 / constrained_intra=0 / bframes=3 / b_pyramid=2 / b_adapt=1 / b_bias=0 / direct=1 / weightb=1 / open_gop=0 / weightp=2 / keyint=250 / keyint_min=23 / scenecut=40 / intra_refresh=0 / rc_lookahead=40 / rc=2pass / mbtree=1 / bitrate=8844 / ratetol=1.0 / qcomp=0.60 / qpmin=0 / qpmax=69 / qpstep=4 / cplxblur=20.0 / qblur=0.5 / ip_ratio=1.40 / aq=1:1.00
Language : English
Default : Yes
Forced : No

Audio
ID : 2
Format : DTS
Format/Info : Digital Theater Systems
Mode : 16
Format settings, Endianness : Big
Codec ID : A_DTS
Duration : 1h 30mn
Bit rate mode : Constant
Bit rate : 1 509 Kbps
Channel(s) : 2 channels
Channel positions : Front: L R
Sampling rate : 48.0 KHz
Frame rate : 93.750 fps (512 spf)
Bit depth : 24 bits
Compression mode : Lossy
Stream size : 978 MiB (15%)
Language : English
Default : Yes
Forced : No



點擊進入下載

回复

使用道具 举报

发表回复

您需要登录后才可以回帖 登录 | 立即注册

本版积分规则

快速回复 返回顶部 返回列表